Skocz do zawartości


Close Open
Close Open
- - - - -

błąd C00D11B1


  • Please log in to reply
24 replies to this topic

#1

  • Goście

Napisany 05 styczeń 2009 - 19:11

Witam, przy próbie odtworzenia filmu w WMP 11 pojawia się błąd C00D11B1 (Vista Home Basik).


Prośba o pomoc i radę.

#2 extrater

extrater

    coś umarło...

  • Forumowicze
  • PipPipPipPipPipPipPip
  • 2576 Postów:
  • Płeć:Mężczyzna
  • Lokalizacja:Łańcut, Polska

Napisany 05 styczeń 2009 - 19:28

Spróbuj najpierw przeinstalować kodeki. Odinstaluj te co masz i zainstaluj np. K-Lite Mega Codec Pack.

Jeśli problem nie zniknie podaj informacje o filmie, które wyświetli Ci MediaInfo. Pojawi się w menu Start po zainstalowaniu K-Lite Mega Codec Pack.
Działa!

#3

  • Goście

Napisany 05 styczeń 2009 - 19:55

Mam zainstalowany K-Lite Codec Pack. Czy zainstalowanie K-Lite Mega Codec Pack coś zmieni? Przepraszam za moje pytanie, ale wcześniej nawalał mi ALLPlayer i zainstalowanie K-Lite Codec Pack pomogło:) a chciałabym żeby oba programy działały prawidłowo:)

Dodano 05-01-2009 19:55:50:

Nie pomogło, bo mój K-Lite Codec Pack - to właśnie K-Lite Mega Codec Pack :)

#4 extrater

extrater

    coś umarło...

  • Forumowicze
  • PipPipPipPipPipPipPip
  • 2576 Postów:
  • Płeć:Mężczyzna
  • Lokalizacja:Łańcut, Polska

Napisany 05 styczeń 2009 - 19:57

Sorry nie załapełem, że Ty to Ty :blush:

Czy AllPlayer otwiera ten film prawidłowo?

I czy błąd występował już wcześniej, czy pojawił się teraz.
Działa!

#5

  • Goście

Napisany 05 styczeń 2009 - 20:08

Tak naprawdę to coś widać tylko jest częściowo przesłonięte przez info, że Program Windows Media Player napotkał problem podczas odtwarzania pliku. Chyba dam sobie z tym spokój jest tyle innych odtwarzaczy...

#6 extrater

extrater

    coś umarło...

  • Forumowicze
  • PipPipPipPipPipPipPip
  • 2576 Postów:
  • Płeć:Mężczyzna
  • Lokalizacja:Łańcut, Polska

Napisany 05 styczeń 2009 - 20:19

mandragora, ale bałagan :o

Kliknij przycisk EDYTUJ przy poprzednim wpisie i wykasuj to co nie potrzebne.
Odpisuj naciskając przycisk ODPOWIEDZ

-------------------------------------------------

Jeśli umiesz czytać po angielsku zaglądnij http://forums.micros.......22&SiteID=1.

Program MediaInfo znalazłaś?
Pomógłby on ograniczyć sferę poszykiwań.
Działa!

#7

  • Goście

Napisany 05 styczeń 2009 - 20:19

Przepraszam, MediaInfo dopiero teraz ściągnęłam - jaką informację powinnam Tobie podać?

#8 repylek

repylek

    Very Lazy Cat

  • Forumowicze
  • PipPipPipPipPipPipPipPip
  • 40257 Postów:
  • Płeć:Mężczyzna

Napisany 05 styczeń 2009 - 20:20

http://search.live.c....p;FORM=BMMENO 

Linkman M-24


#9

  • Goście

Napisany 05 styczeń 2009 - 20:24

Sama się przeraziłam jak zobaczyłam co nawpisywałam ... i jak. Wracając do meritum sprawy;) - jestem 100% Polką i nie znam angielskiego.

#10 extrater

extrater

    coś umarło...

  • Forumowicze
  • PipPipPipPipPipPipPip
  • 2576 Postów:
  • Płeć:Mężczyzna
  • Lokalizacja:Łańcut, Polska

Napisany 05 styczeń 2009 - 20:26

MediaInfo masz w komputerze.

Start->K-Lite Codec Pack->Tools->MediaInfo

Uruchom, kliknij pole u góry, wybierz film, pojawi się tekst. Skopiuj go i wklej na Forum.
Działa!

#11 repylek

repylek

    Very Lazy Cat

  • Forumowicze
  • PipPipPipPipPipPipPipPip
  • 40257 Postów:
  • Płeć:Mężczyzna

Napisany 05 styczeń 2009 - 20:31

... ja też:
http://translate.goo....story_state0= 

Linkman M-24


#12

  • Goście

Napisany 05 styczeń 2009 - 20:33

Faktycznie, to teraz mam dwa MediaInfo:D!



Format : AVI
Format/Info : Audio Video Interleave
File size : 701 MiB
Duration : 1h 28mn
Overall bit rate : 1 104 Kbps
Writing application : VirtualDubMod 1.5.10.2 (build 2540/release)
Writing library : VirtualDubMod build 2540/release

Video
Format : MPEG-4 Visual
Format profile : Streaming Video@L1
Format settings, BVOP : Yes
Format settings, QPel : No
Format settings, GMC : No warppoints
Format settings, Matrix : Default
Codec ID : XVID
Codec ID/Hint : XviD
Duration : 1h 28mn
Bit rate : 965 Kbps
Width : 640 pixels
Height : 352 pixels
Display aspect ratio : 16/9
Frame rate : 25.000 fps
Resolution : 24 bits
Colorimetry : 4:2:0
Scan type : Progressive
Bits/(Pixel*Frame) : 0.171
Stream size : 613 MiB (87%)
Writing library : XviD 1.1.2 (UTC 2006-11-01)

Audio
Format : MPEG Audio
Format version : Version 1
Format profile : Layer 3
Codec ID : 55
Codec ID/Hint : MP3
Duration : 1h 28mn
Bit rate mode : Variable
Bit rate : 126 Kbps
Nominal bit rate : 128 Kbps
Channel(s) : 2 channels
Sampling rate : 48.0 KHz
Resolution : 16 bits
Stream size : 80.2 MiB (11%)
Alignment : Aligned on interleaves
Interleave, duration : 24 ms (0.60 video frame)
Interleave, preload duration : 145 ms
Writing library : LAME3.90.
Encoding settings : ABR

#13 extrater

extrater

    coś umarło...

  • Forumowicze
  • PipPipPipPipPipPipPip
  • 2576 Postów:
  • Płeć:Mężczyzna
  • Lokalizacja:Łańcut, Polska

Napisany 05 styczeń 2009 - 20:52

Kodeki które zainstalowałaś nie powinny mieć z tym problemu.
Z innymi filmami to samo?
Czy robi się tak też przy muzyce mp3?

Tutaj podana wcześniej strona przetłumaczona na polski (automat)
http://translate.goo...history_state0=

Wygląda, że mają nawet trzy różne rozwiązania, tylko nie wiadomo które zadziała.

Jak czegoś nie zrozumiesz, pytaj.
Działa!

#14

  • Goście

Napisany 05 styczeń 2009 - 20:59

Tak, przeczytałam... no może nie wszystko, bo tego jest strasznie dużo. Ale oni maja głównie problem z dźwiękiem i z otwieraniem filmów z netu. Jutro przeczytam to uważniej. Dzięki za niebywałą wręcz cierpliwość. Trochę Forum pomyliło mi się z SMSem:-) W razie pytań się zgłoszę.

#15 extrater

extrater

    coś umarło...

  • Forumowicze
  • PipPipPipPipPipPipPip
  • 2576 Postów:
  • Płeć:Mężczyzna
  • Lokalizacja:Łańcut, Polska

Napisany 05 styczeń 2009 - 21:07

Bo to wygląda na problem z dźwiękiem.
Dlatego pytałem o mp3.
Czytaj od tego fragmentu dużą czcionką, wcześniej nie ma nic ciekawego.
Działa!

#16

  • Goście

Napisany 05 styczeń 2009 - 21:22

Dźwięk jest. Jak w MWP otwieram film, to dźwięk też jest. Pojawia się tylko komunikat: Program Windows Media Player napotkał problem podczas odtwarzania pliku. Aby uzyskać dodatkową pomoc, kliknij przycisk Pomoc w sieci Web, który przesłania film. W pomocy właśnie znalazłam kod błędu. Jak zamykam komunikat - film też się zamyka.

Dodano 05-01-2009 21:22:40:

Czy mógłbyś sprawdzić jeszcze to, jeżeli oczywiście możesz:

Format : AVI
Format/Info : Audio Video Interleave
File size : 701 MiB
Duration : 1h 28mn
Overall bit rate : 1 104 Kbps
Writing application : VirtualDubMod 1.5.10.2 (build 2540/release)
Writing library : VirtualDubMod build 2540/release

Video
Format : MPEG-4 Visual
Format profile : Streaming Video@L1
Format settings, BVOP : Yes
Format settings, QPel : No
Format settings, GMC : No warppoints
Format settings, Matrix : Default
Codec ID : XVID
Codec ID/Hint : XviD
Duration : 1h 28mn
Bit rate : 965 Kbps
Width : 640 pixels
Height : 352 pixels
Display aspect ratio : 16/9
Frame rate : 25.000 fps
Resolution : 24 bits
Colorimetry : 4:2:0
Scan type : Progressive
Bits/(Pixel*Frame) : 0.171
Stream size : 613 MiB (87%)
Writing library : XviD 1.1.2 (UTC 2006-11-01)

Audio
Format : MPEG Audio
Format version : Version 1
Format profile : Layer 3
Codec ID : 55
Codec ID/Hint : MP3
Duration : 1h 28mn
Bit rate mode : Variable
Bit rate : 126 Kbps
Nominal bit rate : 128 Kbps
Channel(s) : 2 channels
Sampling rate : 48.0 KHz
Resolution : 16 bits
Stream size : 80.2 MiB (11%)
Alignment : Aligned on interleaves
Interleave, duration : 24 ms (0.60 video frame)
Interleave, preload duration : 145 ms
Writing library : LAME3.90.
Encoding settings : ABR

#17 extrater

extrater

    coś umarło...

  • Forumowicze
  • PipPipPipPipPipPipPip
  • 2576 Postów:
  • Płeć:Mężczyzna
  • Lokalizacja:Łańcut, Polska

Napisany 05 styczeń 2009 - 21:46

Dwa zadania:

-------------------------------------------------

1.

Uruchom z menu Start->K-Lite Codec Pack->Configuration->Codec Tweak Tool.

W otwartym oknie postaw haczyk przy

Fixes
Reset to recomended settings

Kliknij "Next" i zgadzaj się na zmiany.

--------------------------------------------------

2.

Jeśli nie pomoże 1.

Uruchom Windows Media Player, wybierz z menu Narzędzia->Opcje, zakładka DVD, przycisk Zaawansowane

Dodaj obrazek

Czy przy pozycji podświetlonej na niebiesko masz libavcodec?
Działa!

#18

  • Goście

Napisany 05 styczeń 2009 - 22:33

Mam dźwięk i obraz!

WNP - Narzędzia - opcje - urządzenia - głośnik - zaawansowane - urządzenie audio jako domyślne. Wyjść - wejść ponownie - Narzędzia - opcje - urządzenia - głośnik - zaawansowane - głośnik jako domyślne

Dodano 05-01-2009 22:33:45:

Dodatkowo:
ad zad. nr 2 - przy XVID - libavcodec - zamieniłam na - Xvid i teraz już wszystkie, wszyskie filmy na MWP działają. Wielkie dzięki...

#19 Bonitalka

Bonitalka

    Adept

  • Forumowicze
  • Pip
  • 1 Postów:
  • Płeć:Kobieta

Napisany 20 październik 2009 - 11:02

Błąd C00D11B1- brak dzwieku w winampie, WMP itp

Rozwiązanie:


1. strat-> uruchom ( w viscie jak nie widać to należy nacisnąć znaczek windowsa +R)
2. wpisać regedt32
3. HKEY_LOCAL_MACHINE->SOFTWARE-> MICROSOFT-> WINDOWS->current version->audio
4. w prawym oknie kliknąć na DisableProtecedAudioDG i zmienic z 1 na 0.
5. restrcik
6. i juz wszystko powinno byc w porzadku :)

#20 AsiaAzja

AsiaAzja

    Adept

  • Forumowicze
  • Pip
  • 2 Postów:
  • Płeć:Kobieta
  • Lokalizacja:Wro

Napisany 01 grudzień 2012 - 21:33

Też mi wyskakuje ten sam błąd w media playerze :/
Mam Windowsa 7.

U mnie wygląda to tak:
Wszystkie mp3 w media playerze nie mogą być odtwarzane - wyskakuje błąd,
Filmy np. w VLC media player są odtwarzane bez dzwięku, tak samo utwory w innych playerach są czytne (niby utwór leci, czas, przebieg, grafiki są ale dziwięku nie ma...
dzwięki systemowe i w internecie działają prawidłowo...

Ktoś poradził by:
"1. strat-> uruchom ( w viscie jak nie widać to należy nacisnąć znaczek windowsa +R)
2. wpisać regedt32
3. HKEY_LOCAL_MACHINE->SOFTWARE-> MICROSOFT-> WINDOWS->current version->audio
4. w prawym oknie kliknąć na DisableProtecedAudioDG i zmienic z 1 na 0."

Jednakże w folderze "audio" nie mam DisableProtecedAudioDG a EnableCaptureMonitor ustawione na 1 oraz EnableLogonHIDControls też ustawionych na 1 oraz jeden plik "no name"
screen tego tu >> http://forum.idg.pl/...58-problemojpg/

Dodatkowo dodam, że odinstalowałam wszystkie kodeki jakie były na kompie i zainstalowałam k-lite mega, ale to nic nie pomogło :/

Mam nadzieję, że ktoś mi pomoże bo mam dość braku muzyki :/




0 Użytkowników czyta ten temat

0 użytkowników, 0 gości, 0 anonimowych użytkowników